Format: Flash Video
File size: 161 MiB
Duration: 52mn 28s
Overall bit rate: 430 Kbps

Video format: AVC
Width: 480 pixels
Height: 272 pixels
Display aspect ratio: 16:9
Frame rate: 29.970 fps
Stream size: 136 MiB (85%)

Audio format: AAC
Bit rate: 62.7 Kbps
Channel(s): 2 channels
Stream size: 24.4 MiB (15%)

Link / Download
Kod:
http://uploaded.to/file/btxwv4b4

Pobierz plik
Lub / Or
Kod:
http://turbobit.net/axm6c34i9u33.html

Pobierz plik